KualaLumpur10
Selamat Datang Ke Kualalumpur10 forum** Kepada pelawat, sila mendaftar untuk menikmati segala kemudahan Kualalumpur10 forum.** DiHarap semua sahabat yg baru berdaftar, sila memperkenalkan diri anda di ruangan forum .:KENALKAN DIRI ANDA:. Kualalumpur10 forum.** Pelawat yang mengalami masalah register atau login sila emailkan kepada scrollock0428@gmail.com(forum help support).** Selepas mendaftar, anda akan secara Automatik telah menjadi ahli Kualalumpur10 forum dan seterusnya anda boleh login untuk memasuki Kualalumpur10 forum tanpa menunggu sebarang e-mail pengaktifan akaun.Selamat Melayari Kualalumpur10 forum BUKAN SEKADAR FORUM



 
HomePortalCalendarGalleryFAQSearchMemberlistUsergroupsRegisterLog in
KL10 News online
.:Sila click pada gambar dibawah untuk berita online:.
  • Description
  • Description
  • Description
  • Description
  • Description
KL10 forum games
Description
Link sahabat forum
PROMOTE KAMI
.:Sila copy dan pastekan code dibawah ke laman web anda untuk promosi Forum KL 10:.

Description


Share | 
 

 [RS/MS] The.Imaginarium.of.Doctor.Parnassus.DVDSCR.LiNE.RE ADNFO.XViD-IMAGiNE

View previous topic View next topic Go down 
AuthorMessage
edkun



Posts : 175
Join date : 20/08/2009
Age : 30

PostSubject: [RS/MS] The.Imaginarium.of.Doctor.Parnassus.DVDSCR.LiNE.RE ADNFO.XViD-IMAGiNE   Tue Jan 26, 2010 2:48 am





arYzs-eDkUn TEAM :


The.Imaginarium.of.Doctor.Parnassus.DVDSCR.LiNE.READNFO.XViD-IMAGiNE






















Code:
http://www.imdb.com/title/tt1054606/


RELEASE NOTE

Code:
      *********** ****    ****      ***      ******** *********** ****    *** **********
          *+*    +*+*+* *+*+*+  *+* *+*  *+*    *+*    *+*    *+*+*  *+* *+*       
          +*+    +*+ +*+*+ +*+  +*+  +*+  +*+          +*+    *+*+*+  +*+ +*+       
          +$+    +$+  +*+  +$+ +$++*++$++* *$*          +$+    +$+ +*+ +$+ +$++*++$ 
          +$+    +$+      +$+ +$+    +$+ +$+  +$+$    +$+    +$+  +$+$+$ +$+       
          $+$    $+$      $+$ $+$    $+$ $+$    $+$    $+$    $+$  $+$+$ $+$       
      $$$$$$$$$$$ $$$      $$$ $$$    $$$  $$$$$$$$ $$$$$$$$$$$ $$$    $$$$ $$$$$$$$$$   
                                               



                          Another Fine Release Brought to you from - IMAGiNE                 
                                              http://imaginegroup.me/ 
   
********************************************************************************************************************                               
        The Imaginarium of Doctor Parnassus.DVDSCR LiNE READNFO XViD - IMAGiNE
********************************************************************************************************************

Ripper ...........: IMAGiNE                                        IMDB Rating.......:7.4/10                           
Video Codec.......: XVID                                        Release Date......:22/01/10
Audio Codec.......:MP3                                          Theatre Date......:08/01/10
Audio Bitrate.....:96                                              Runtime.......:1h 57mn
Subtitles.........:NIL                                                Language..........:ENGLISH
Resolution...... 624 x 336                                      IMDb URL..........:http://www.imdb.com/title/tt1054606/


[color=yellow]DETAILS:[/color]

Video
ID                              : 0
Format                          : MPEG-4 Visual
Format profile                  : Advanced Simple@L5
Format settings, BVOP            : Yes
Format settings, QPel            : No
Format settings, GMC            : No warppoints
Format settings, Matrix          : Default (H.263)
Muxing mode                      : Packed bitstream
Codec ID                        : XVID
Codec ID/Hint                    : XviD
Duration                        : 1h 57mn
Bit rate                        : 1 540 Kbps
Width                            : 624 pixels
Height                          : 336 pixels
Display aspect ratio            : 1.857
Frame rate                      : 25.000 fps
Resolution                      : 24 bits
Colorimetry                      : 4:2:0
Scan type                        : Progressive
Bits/(Pixel*Frame)              : 0.294
Stream size                      : 1.26 GiB (94%)
Writing library                  : XviD 1.2.1 (UTC 2008-12-04)

Audio
ID                              : 1
Format                          : MPEG Audio
Codec ID                        : 55
Codec ID/Hint                    : MP3
Duration                        : 1h 57mn
Bit rate                        : 96.0 Kbps
Channel(s)                      : 2 channels
Sampling rate                    : 22.05 KHz
Stream size                      : 80.4 MiB (6%)
Alignment                        : Split accross interleaves
Interleave, duration            : 40 ms (1.00 video frame)
Interleave, preload duration    : 500 ms


[color=yellow]NOTES:[/color]

IMAGiNE bringing you another release.....
Right now no doubt the tagging of this will cause some to moan.....but it all honesty we could have tagged it
several different ways and some would still question them so :P
We opted for DVDSCR LiNE ......based on the same as a R5 LiNE tag.Video is a dvdscr but the audio is line so ...
Anyway we used the spanish dvdscr that has been out for a while but we was holding back until we got some decent
audio and here it is.
Video and audio have both been tweaked and audio needed to be synced....got too be honest and say there is some slight
sync issues here and there but not by much,50ms give or take....but this was a bitch to sync so ......if you want perfection do it
yourself :P


[color=yellow]GREETS:[/color]

FLAWL3SS,ViSiON,DEViSE,FUSiON,STG,SecretMyth,BirdFlu,ELEKTRI4KA
And to all the other p2p grps past and present

Special thanks to Python-Lair for the server :)
And special thanks to supreme-speeds.com for the ripbox :)

[COLOR=RED]Looking for these,syncers,cammer,silver supplier.....Have anything to offer????......
Contact us imaginegroup@hushmail.com[/COLOR]







Code:
http://d01.megashares.com/dl/d18d978/TIODP.DVDSCR.LiNE.READNFO.XViD-IMAGiNE.by.eDkUn_eRiKa.avi

http://rapidshare.com/files/340730142/TIODP.DVDSCR.LiNE.READNFO.XViD-IMAGiNE.by.eDkUn_eRiKa.part1.rar
http://rapidshare.com/files/340737112/TIODP.DVDSCR.LiNE.READNFO.XViD-IMAGiNE.by.eDkUn_eRiKa.part2.rar
http://rapidshare.com/files/340731187/TIODP.DVDSCR.LiNE.READNFO.XViD-IMAGiNE.by.eDkUn_eRiKa.part3.rar
http://rapidshare.com/files/340730961/TIODP.DVDSCR.LiNE.READNFO.XViD-IMAGiNE.by.eDkUn_eRiKa.part4.rar
http://rapidshare.com/files/340735736/TIODP.DVDSCR.LiNE.READNFO.XViD-IMAGiNE.by.eDkUn_eRiKa.part5.rar
http://rapidshare.com/files/340731100/TIODP.DVDSCR.LiNE.READNFO.XViD-IMAGiNE.by.eDkUn_eRiKa.part6.rar
http://rapidshare.com/files/340733729/TIODP.DVDSCR.LiNE.READNFO.XViD-IMAGiNE.by.eDkUn_eRiKa.part7.rar



..:: 200 MB Parts || No Pass ::..


If you don't have own Rapidshare Premium account, or if you're account expire, please buy/extend from any of my links. That's the way how can you thank me in special way - I'll get Premium Rapidshare Reffer Points.









8 hours to upload just one movie
8 minutes to post just one movie
3 minute to quote just one thread
6 seconds to type just one"Thank You " OR "Whoooo"
Back to top Go down
View user profile http://edkun-erika.blogspot.com/
 
[RS/MS] The.Imaginarium.of.Doctor.Parnassus.DVDSCR.LiNE.RE ADNFO.XViD-IMAGiNE
View previous topic View next topic Back to top 
Page 1 of 1

Permissions in this forum:You cannot reply to topics in this forum
KualaLumpur10 :: .::HIBURAN::. :: .::BOXOFFICE MOVIE::.-
Jump to:  
KL10 partner

DescriptionDescription

Advertise here
Description

DescriptionDescription

Description