KualaLumpur10
Selamat Datang Ke Kualalumpur10 forum** Kepada pelawat, sila mendaftar untuk menikmati segala kemudahan Kualalumpur10 forum.** DiHarap semua sahabat yg baru berdaftar, sila memperkenalkan diri anda di ruangan forum .:KENALKAN DIRI ANDA:. Kualalumpur10 forum.** Pelawat yang mengalami masalah register atau login sila emailkan kepada scrollock0428@gmail.com(forum help support).** Selepas mendaftar, anda akan secara Automatik telah menjadi ahli Kualalumpur10 forum dan seterusnya anda boleh login untuk memasuki Kualalumpur10 forum tanpa menunggu sebarang e-mail pengaktifan akaun.Selamat Melayari Kualalumpur10 forum BUKAN SEKADAR FORUM



 
HomePortalCalendarGalleryFAQSearchMemberlistUsergroupsRegisterLog in
KL10 News online
.:Sila click pada gambar dibawah untuk berita online:.
  • Description
  • Description
  • Description
  • Description
  • Description
KL10 forum games
Description
Link sahabat forum
PROMOTE KAMI
.:Sila copy dan pastekan code dibawah ke laman web anda untuk promosi Forum KL 10:.

Description


Share | 
 

 [RS+2] Planet 51 TS XVID V2 READNFO – IMAGiNE -

View previous topic View next topic Go down 
AuthorMessage
edkun



Posts : 175
Join date : 20/08/2009
Age : 30

PostSubject: [RS+2] Planet 51 TS XVID V2 READNFO – IMAGiNE -   Sun Nov 29, 2009 9:12 pm





arYzs-eDkUn TEAM : Planet 51 TS XVID V2 READNFO – IMAGiNE -



















Code:
http://www.imdb.com/title/tt0762125/




RELEASE NOTES:

Code:
::::::::::: ::::    ::::      :::      :::::::: ::::::::::: ::::    ::: ::::::::::
                    : :      : : : : : :    : : : :  : :    : :    : :    : : :  : : : :       
                      :      :  : :  :    :    :    :            :      : : :    :  :         
                      #      #    :    #  #  :  #  : :#:            #      #  :  #  #  :  # 
                      #      #        #  #      #  #    # #    #      #    # # #  #         
                    # #    # #      # # # #    # # # #    # #    # #    # #  # # # # #       
                ########### ###      ### ###    ###  ######## ########### ###    #### ########## 
                                               



                          Another Fine Release Brought to you from - IMAGiNE                 
                                            http://imaginegroup.me/ 
   
********************************************************************************************************************                      Planet 51 (2009) TS XviD - IMAGiNE
********************************************************************************************************************

Ripper ...........: IMAGiNE                                      IMDB Rating.......:6.0/10                           
Video Codec.......:XVID                                          Release Date......:23/11/09
Audio Codec.......:MPEG Audio                                    Theatre Date......:20/1/09
Audio Bitrate.....:128                                          Runtime...........:1h 21mn
Subtitles.........:NIL                                          Language..........:ENGLISH
Resolution........:704 x 272                                     
IMDb URL..........:http://www.imdb.com/title/tt0762125/


DETAILS:
General
Complete name                    : Planet.51 TS.XviD-IMAGiNE.avi
Format                          : AVI
Format/Info                      : Audio Video Interleave
File size                        : 705 MiB
Duration                        : 1h 21mn
Overall bit rate                : 1 209 Kbps
Writing library                  : VirtualDub build 30091/release

Video
ID                              : 0
Format                          : MPEG-4 Visual
Format profile                  : AdvancedSimple@L5
Format settings, BVOP            : Yes
Format settings, QPel            : No
Format settings, GMC            : No warppoints
Format settings, Matrix          : Default (MPEG)
Muxing mode                      : Packed bitstream
Codec ID                        : XVID
Codec ID/Hint                    : XviD
Duration                        : 1h 21mn
Bit rate                        : 1 075 Kbps
Width                            : 704 pixels
Height                          : 272 pixels
Display aspect ratio            : 2.588
Frame rate                      : 25.000 fps
Resolution                      : 24 bits
Colorimetry                      : 4:2:0
Scan type                        : Progressive
Bits/(Pixel*Frame)              : 0.225
Stream size                      : 627 MiB (89%)
Writing library                  : XviD 1.2.1 (UTC 2008-12-04)

Audio
ID                              : 1
Format                          : MPEG Audio
Format version                  : Version 1
Format profile                  : Layer 3
Format_Settings_Mode            : Joint stereo / MS Stereo
Codec ID                        : 55
Codec ID/Hint                    : MP3
Duration                        : 1h 21mn
Bit rate mode                    : Variable
Bit rate                        : 121 Kbps
Nominal bit rate                : 128 Kbps
Channel(s)                      : 2 channels
Sampling rate                    : 44.1 KHz
Resolution                      : 16 bits
Video delay                      : 52ms
Stream size                      : 70.8 MiB (10%)
Alignment                        : Split accross interleaves
Interleave, duration            : 26 ms (0.65 video frame)
Interleave, preload duration    : 650 ms


NOTES:

IMAGiNE bringing you another release.....
Here we go with Planet 51. There are two sources available for this at the moment so
we chosen to do this one first, and i mean first as we might do both video's with line
so you may choose which one you like best as both sources have there own good and
bad points to them. We did the normal things to this release. Adjusted colors and ran
a few more filters on it to touch it up. After that we added our line audio to it.
Thanks to ELEKTRI4KA for the video source..
Enjoy...






Code:

[ RapidShare ]

http://rapidshare.com/files/312462549/Planet_51_TS_XVID_V2_READNFO_-_IMAGiNE.part1.rar
http://rapidshare.com/files/312534935/Planet_51_TS_XVID_V2_READNFO_-_IMAGiNE.part2.rar
http://rapidshare.com/files/312557052/Planet_51_TS_XVID_V2_READNFO_-_IMAGiNE.part3.rar
http://rapidshare.com/files/312559045/Planet_51_TS_XVID_V2_READNFO_-_IMAGiNE.part4.rar

OR


[ HotFile ]

http://hotfile.com/dl/18689771/9fef1e9/Planet_51_TS_XVID_V2_READNFO_-_IMAGiNE.part1.rar
http://hotfile.com/dl/18705456/0598689/Planet_51_TS_XVID_V2_READNFO_-_IMAGiNE.part2.rar
http://hotfile.com/dl/18709959/ea64461/Planet_51_TS_XVID_V2_READNFO_-_IMAGiNE.part3.rar
http://hotfile.com/dl/18710200/bc4cc56/Planet_51_TS_XVID_V2_READNFO_-_IMAGiNE.part4.rar


OR


[ FileThe.net ]

http://www.filethe.net/50f750vs8ig1/Planet_51_TS_XVID_V2_READNFO_-_IMAGiNE.part1.rar
http://www.filethe.net/gec3×9noogc3/Planet_51_TS_XVID_V2_READNFO_-_IMAGiNE.part2.rar
http://www.filethe.net/mv66iswrpf3p/Planet_51_TS_XVID_V2_READNFO_-_IMAGiNE.part3.rar
http://www.filethe.net/ojmvvxg1mp7v/Planet_51_TS_XVID_V2_READNFO_-_IMAGiNE.part4.rar





..:: All download links are interchangable ::..










8 hours to upload just one movie
8 minutes to post just one movie
3 minute to quote just one thread
6 seconds to type just one"Thank You " OR "Whoooo"
Back to top Go down
View user profile http://edkun-erika.blogspot.com/
 
[RS+2] Planet 51 TS XVID V2 READNFO – IMAGiNE -
View previous topic View next topic Back to top 
Page 1 of 1

Permissions in this forum:You cannot reply to topics in this forum
KualaLumpur10 :: .::HIBURAN::. :: .::BOXOFFICE MOVIE::.-
Jump to:  
KL10 partner

DescriptionDescription

Advertise here
Description

DescriptionDescription

Description